Torrent Details For "The Cage Fighter 2018 Movies HDRip x264 5.1 ESubs with Sample ☻rDX☻"

Warning! Use a VPN When Downloading Torrents!
Your IP Address is . Location is
Your Internet Provider is tracking your torrent activity! Hide your IP ADDRESS with a VPN!
We strongly recommend using Trust.Zone VPN to anonymize your torrenting. It's FREE!
Get VPN Now for FREE!
The Cage Fighter 2018 Movies HDRip x264 5.1 ESubs with Sample ☻rDX☻



Title: The Cage Fighter 2018 Movies HDRip x264 5.1 ESubs with Sample ☻rDX☻
Category: Movies > Action
Uploader:

Uploaded by rdx*8559

Seeders: 110
Leechers: 50
Completed: 323
Downloaded: 2
Size: 798.83 MB
Language: English English
Ads
Loading...
The Cage Fighter 2018 Movies HDRip x264 5.1 ESubs with Sample ☻rDX☻

:clapSCREEN SHOTS & POSTER::clap

http://postimage.co.nr/2018/2/court/index.html
http://postimage.co.nr/2018/2/court/1.html
http://postimage.co.nr/2018/2/court/2.html
http://postimage.co.nr/2018/2/court/3.html
http://postimage.co.nr/2018/2/court/4.html
http://postimage.co.nr/2018/2/court/5.html
http://postimage.co.nr/2018/2/court/6.html
http://postimage.co.nr/2018/2/court/7.html
http://postimage.co.nr/2018/2/court/8.html
http://postimage.co.nr/2018/2/court/9.html
http://postimage.co.nr/2018/2/court/10.html


File size                                : 790 MiB
Duration                                 : 1 h 20 min
Overall bit rate                         : 1 365 kb/s
Movie name                               : The Cage Fighter 2018 Movies HDRip x264 5.1 ESubs ☻rDX☻

Video
ID                                       : 2
Format                                   : AVC
Format/Info                              : Advanced Video Codec
Format profile                           : [email protected]
Format settings, CABAC                   : Yes
Format settings, ReFrames                : 4 frames
Codec ID                                 : V_MPEG4/ISO/AVC
Duration                                 : 1 h 20 min
Bit rate                                 : 698 kb/s
Width                                    : 720 pixels
Height                                   : 300 pixels
Display aspect ratio                     : 2.40:1
Original display aspect ratio            : 2.40:1
Frame rate mode                          : Constant
Frame rate                               : 23.976 (24000/1001) FPS
Color space                              : YUV
Chroma subsampling                       : 4:2:0
Bit depth                                : 8 bits
Scan type                                : Progressive
Bits/(Pixel*Frame)                       : 0.135
Stream size                              : 404 MiB (51%)
Title                                    : ☻rDX☻
Writing library                          : x264

Audio
ID                                       : 1
Format                                   : E-AC-3
Format/Info                              : Enhanced Audio Coding 3
Format settings, Endianness              : Big
Codec ID                                 : A_EAC3
Duration                                 : 1 h 20 min
Bit rate mode                            : Constant
Bit rate                                 : 640 kb/s
Channel(s)                               : 6 channels
Channel positions                        : Front: L C R, Side: L R, LFE
Sampling rate                            : 48.0 kHz
Frame rate                               : 187.500 FPS (256 spf)
Compression mode                         : Lossy
Delay relative to video                  : -21 ms
Stream size                              : 370 MiB (47%)
Title                                    : ☻rDX☻
Language                                 : English
Default                                  : Yes
Forced                                   : No

Text
ID                                       : 3
Format                                   : ASS
Codec ID                                 : S_TEXT/ASS
Codec ID/Info                            : Advanced Sub Station Alpha
Compression mode                         : Lossless
Title                                    : ☻rDX☻
Language                                 : English
Default                                  : Yes
Forced                                   : No
File Name: Size:
Sample ~ The Cage Fighter 2018 Movies HDRip x264 5.1 ESubs ☻rDX☻.mkv9.03 MB
The Cage Fighter 2018 Movies HDRip x264 5.1 ESubs ☻rDX☻.mkv789.80 MB
The Cage Fighter
Title: The Cage Fighter
Rated: 0 by 0 People.
A.K.A : The Cage Fighter
Released: 2017-04-07
Runtime: Minutes
Genre: 28, 99, 18
Language: en
Budget: USD
Plot: A blue-collar family man breaks the promise he'd made to never fight again. Now forty years old, with a wife and four children who need him, Joe Carman risks everything to go back into the fighting cage and come to terms with his past.
TMDB
TrackersSeedersLeechersCompleted
udp://tracker.coppersurfer.tk:6969/announce11050323
http://retracker.krs-ix.ru/announce000
http://mgtracker.org:2710/announce32002
http://tracker.aletorrenty.pl:2710/announce000
http://tracker.btcake.com/announce000
Torrent Hash: EDC4B7CFE85F529241B44EEE1855AD407BB39D70
Not Yet Rated (Log in to rate it)
No comments still posted

Related Torrents

Torrents NameSizeSLAge
The Cincinnati Kid (Drama 1965) Steve McQueen 720p BrRip [WWRG]
       0


by BurtonC in Movies > Drama
962.05 MB 181 89 4 days ago
The Circle 2017 10bit hevc-d3g.[N1C]
       0


by no1cares in Movies > Highres Movies
2.28 GB 9 0 5 days ago
The Claim (Western 2000) Wes Bentley 720p [WWRG]
       0


by BurtonC in Movies > Western
966.62 MB 349 215 1 wk ago
The Chronicles of Riddick 2004 10bit hevc-d3g.[N1C]
       0


by no1cares in Movies > Highres Movies
2.76 GB 13 16 1 wk ago
The Change-Up 2011 10bit hevc-d3g.[N1C]
       0


by no1cares in Movies > Web rip, x264, x265
2.22 GB 37 20 1 wk ago


Embed & Sharing


Login


Email:
Password:
[Signup]
[Recover Account]

Latest Forum


Author : miok
Subject :Dutch/Belgian Community! v.3
Last Replies :  Rob.Otje
On : 2018-02-21 17:15:40

Author : Nemesis43
Subject :Comic Book Request Thread v06
Last Replies :  msn12
On : 2018-02-21 17:08:41

Author : Beowulf
Subject :Count to 150! Before it gets r...
Last Replies :  Rob.Otje
On : 2018-02-21 16:57:20

Author : miok
Subject :Pirate Site Admin Sentenced to...
Last Replies :  zeke23
On : 2018-02-21 16:06:01

Author : Angelina
Subject :Request Uploader Status Here
Last Replies :  zeke23
On : 2018-02-21 15:48:34

Author : Deep61
Subject :The Numbers game V3
Last Replies :  Rob.Otje
On : 2018-02-21 15:00:15

Author : Chelsea
Subject :Count Down to Zero!
Last Replies :  Rob.Otje
On : 2018-02-21 14:58:27

Author : Beowulf
Subject :The Random XXX Sexy Girls Imag...
Last Replies :  Beowulf
On : 2018-02-21 14:51:53

Author : miok
Subject :Google Image Game v2
Last Replies :  miok
On : 2018-02-21 14:40:42

Author : KillerJane
Subject :Funny animated GIF images Part...
Last Replies :  KillerJane
On : 2018-02-21 14:16:42



Blog



News


WWT News And Updates Feb 2018
Posted: 02-Dec-17


Site Friends