Torrent Details For "Pad Man 2018 Hindi Untouched Pre-DVDRip x264 AAC { TaRa }.mkv"

Warning! Use a VPN When Downloading Torrents!
Your IP Address is . Location is
Your Internet Provider is tracking your torrent activity! Hide your IP ADDRESS with a VPN!
We strongly recommend using Trust.Zone VPN to anonymize your torrenting. It's FREE!
Get VPN Now for FREE!
Pad Man 2018 Hindi Untouched Pre-DVDRip x264 AAC { TaRa }.mkv



Title: Pad Man 2018 Hindi Untouched Pre-DVDRip x264 AAC { TaRa }.mkv
Category: Movies > Bollywood
Uploader:

Uploaded by SkTaRa*419

Seeders: 2422
Leechers: 1504
Completed: 5333
Downloaded: 90
Size: 804.80 MB
Language: Hindi Hindi
Ads
Loading...

Pad Man 2018 Hindi Untouched Pre-DVDRip x264 AAC { TaRa }.mkv


===================================================================
General
Complete name               : Pad Man 2018 Hindi Untouched Pre-DVDRip x264 AAC { TaRa }.mkv
Format                      : Matroska
Format version              : Version 4 / Version 2
File size                   : 805 MiB
Duration                    : 2 h 12 min
Overall bit rate            : 851 kb/s
===================================================================
Video
ID                          : 1
Format                      : AVC
Format/Info                 : Advanced Video Codec
Format profile              : [email protected]
Format settings, CABAC      : Yes
Format settings, ReFrames   : 5 frames
Codec ID                    : V_MPEG4/ISO/AVC
Duration                    : 2 h 12 min
Bit rate                    : 704 kb/s
Width                       : 704 pixels
Height                      : 576 pixels
Display aspect ratio        : 16:9
Frame rate mode             : Constant
Frame rate                  : 25.000 FPS
Standard                    : PAL
Color space                 : YUV
Chroma subsampling          : 4:2:0
Bit depth                   : 8 bits
Scan type                   : Progressive
Bits/(Pixel*Frame)          : 0.069
Stream size                 : 670 MiB (83%)
Title                       : ......::::: TaRa :::::.....
Language                    : Hindi
Default                     : Yes
Forced                      : No
===================================================================
Audio
ID                          : 2
Format                      : AAC
Format/Info                 : Advanced Audio Codec
Format profile              : LC
Codec ID                    : A_AAC
Duration                    : 2 h 12 min
Bit rate                    : 140 kb/s
Channel(s)                  : 2 channels
Channel positions           : Front: L R
Sampling rate               : 48.0 kHz
Frame rate                  : 46.875 FPS (1024 spf)
Compression mode            : Lossy
Delay relative to video     : -43 ms
Stream size                 : 132 MiB (16%)
Title                       : ......::::: TaRa :::::.....
Language                    : Hindi
Default                     : Yes
Forced                      : No
===================================================================


























File Name: Size:
Pad Man 2018 Hindi Untouched DVDScr x264 AAC { TaRa }.mkv804.58 MB
Pad-Man-220x300.jpg20.53 kB
www.hdsector.to.jpg196.90 kB
www.hdsector.to.nfo6.53 kB
www.hdsector.to.txt793.00 B
TrackersSeedersLeechersCompleted
udp://tracker.coppersurfer.tk:6969/announce2,4221,5045,333
Torrent Hash: 208B5C4276FD6B8BE0326AC11D6C0C6A478361AF
Not Yet Rated (Log in to rate it)
No comments still posted

Related Torrents

No similar torrent

Embed & Sharing


Login


Email:
Password:
[Signup]
[Recover Account]

Latest Forum


Author : miok
Subject :Dutch/Belgian Community! v.3
Last Replies :  TrueEdterBak
On : 2018-02-20 05:54:41

Author : Angelina
Subject :Ebook request thread V2
Last Replies :  Mishka
On : 2018-02-20 04:18:46

Author : Angelina
Subject :Quote of The Day
Last Replies :  dascubadude
On : 2018-02-20 03:41:14

Author : miok
Subject :Google Image Game v2
Last Replies :  dascubadude
On : 2018-02-20 03:35:30

Author : Mafketel
Subject :Top Uploader Of The Month
Last Replies :  miok
On : 2018-02-20 01:32:09

Author : UnderTest
Subject :Adult Jokes Here!
Last Replies :  GodAndUlster
On : 2018-02-19 23:56:16

Author : Gear Shifter
Subject :Gear Shifter Sports Releases
Last Replies :  Gear Shifter
On : 2018-02-19 23:49:37

Author : miok
Subject :World Wide Release/WWRG (Page ...
Last Replies :  Gear Shifter
On : 2018-02-19 23:46:45

Author : Nemesis43
Subject :Comic Book Request Thread v06
Last Replies :  Nemesis43
On : 2018-02-19 22:14:44

Author : Deep61
Subject :Deep61's Soaps,TV,and E books
Last Replies :  Deep61
On : 2018-02-19 21:57:22

Author : UnderTest
Subject :Adult Forum Rules Read [18+ ON...
Last Replies :  Snowflakes
On : 2018-02-19 21:53:27

Author : Mafketel
Subject :Answer with a Gif or Meme V2
Last Replies :  Snowflakes
On : 2018-02-19 18:56:11



Blog



News


WWT News And Updates Feb 2018
Posted: 02-Dec-17


Site Friends