Torrent Details For "[EX8][Blame! - Movie 2017] [BD][1920x1080] [GB]"

Warning! Use a VPN When Downloading Torrents!
Your IP Address is . Location is
Your Internet Provider is tracking your torrent activity! Hide your IP ADDRESS with a VPN!
We strongly recommend using Trust.Zone VPN to anonymize your torrenting. It's FREE!
Get VPN Now for FREE!
[EX8][Blame! - Movie 2017] [BD][1920x1080] [GB]



Title: [EX8][Blame! - Movie 2017] [BD][1920x1080] [GB]
Category: Anime > Movie
Uploader:

Uploaded by moros*57

Seeders: 2
Leechers: 0
Completed: 633
Downloaded: 20
Size: 1.24 GB
Language: Japanese Japanese
Ads
Loading...


General
Complete name                  :
Format                         : MPEG-4
Format profile                 : Base Media
Codec ID                       : isom (isom)
File size                      : 1.24 GiB
Duration                       : 1 h 45 min
Overall bit rate mode          : Variable
Overall bit rate               : 1 686 kb/s
Encoded date                   : UTC 2017-11-06 12:12:50
Tagged date                    : UTC 2017-11-06 12:12:50

Video
ID                             : 1
Format                         : AVC
Format/Info                    : Advanced Video Codec
Format profile                 : [email protected]
Format settings                : CABAC / 4 Ref Frames
Format settings, CABAC         : Yes
Format settings, ReFrames      : 4 frames
Codec ID                       : avc1
Codec ID/Info                  : Advanced Video Coding
Duration                       : 1 h 45 min
Bit rate                       : 1 426 kb/s
Maximum bit rate               : 22.6 Mb/s
Width                          : 1 920 pixels
Height                         : 1 080 pixels
Display aspect ratio           : 16:9
Frame rate mode                : Constant
Frame rate                     : 23.976 (24000/1001) FPS
Color space                    : YUV
Chroma subsampling             : 4:2:0
Bit depth                      : 8 bits
Scan type                      : Progressive
Bits/(Pixel*Frame)             : 0.029
Stream size                    : 1.05 GiB (85%)
Encoded date                   : UTC 2017-11-06 09:03:09
Tagged date                    : UTC 2017-11-06 12:13:16

Audio
ID                             : 2
Format                         : AAC
Format/Info                    : Advanced Audio Codec
Format profile                 : LC
Codec ID                       : mp4a-40-2
Duration                       : 1 h 45 min
Bit rate mode                  : Variable
Bit rate                       : 256 kb/s
Maximum bit rate               : 263 kb/s
Channel(s)                     : 2 channels
Channel positions              : Front: L R
Sampling rate                  : 48.0 kHz
Frame rate                     : 46.875 FPS (1024 SPF)
Compression mode               : Lossy
Stream size                    : 193 MiB (15%)
Encoded date                   : UTC 2017-11-06 12:05:39
Tagged date                    : UTC 2017-11-06 12:13:16

File Name: Size:
动漫国字幕 压制EX82.07 kB
www.ex8zz.xin1.86 kB
[EX8][Blame! - Movie 2017] [BD][1920x1080] [GB].mp41.24 GB
Blame!
Title: Blame!
Rated: 6.6 by 75 People.
A.K.A : ブラム
Released: 2017-05-20
Runtime: Minutes
Genre: 28, 16, 18, 27, 878
Language: ja
Budget: USD
Plot: In the distant technological future, civilization has reached its ultimate Net-based form. An "infection" in the past caused the automated systems to spiral out of order, resulting in a multi-leveled city structure that replicates itself infinitely in all directions. Now humanity has lost access to the city's controls, and is hunted down and purged by the defense system known as the Safeguard. In a tiny corner of the city, a little enclave known as the Electro-Fishers is facing eventual extinction, trapped between the threat of the Safeguard and dwindling food supplies. A girl named Zuru goes on a journey to find food for her village, only to inadvertently cause doom when an observation tower senses her and summons a Safeguard pack to eliminate the threat. With her companions dead and all escape routes blocked, the only thing that can save her now is the sudden arrival of Killy the Wanderer, on his quest for the Net Terminal Genes, the key to restoring order to the world.
TMDB
TrackersSeedersLeechersCompleted
http://nyaa.tracker.wf:7777/announce20633
Torrent Hash: 9FFB0A036540DEE84DBFE8F0194E2B0766C7DE5E
Not Yet Rated (Log in to rate it)
No comments still posted

Related Torrents

Torrents NameSizeSLAge
[EX8]Godzilla: Planet of the Monsters[GB]
       0


by moros in Anime > Other Anime
1.29 GB 68 24 4 wks ago


Embed & Sharing


Login


Email:
Password:
[Signup]
[Recover Account]

Latest Forum


Author : Nemesis43
Subject :Comic Book Request Thread v06
Last Replies :  Webs_1990
On : 2018-02-21 20:59:30

Author : miok
Subject :Google Image Game v2
Last Replies :  miok
On : 2018-02-21 20:37:03

Author : vimzie
Subject :Shoe/Sneaker Thread
Last Replies :  vimzie
On : 2018-02-21 20:35:40

Author : Beowulf
Subject :Watches and Clocks in the Worl...
Last Replies :  vimzie
On : 2018-02-21 19:51:52

Author : vimzie
Subject :WWT Tattoo Thread
Last Replies :  vimzie
On : 2018-02-21 19:49:02

Author : miok
Subject :Dutch/Belgian Community! v.3
Last Replies :  TrueEdterBak
On : 2018-02-21 19:20:42

Author : miok
Subject :How To Become Elite Uploader/A...
Last Replies :  zeke23
On : 2018-02-21 18:56:44

Author : Beowulf
Subject :Random natural pics on this Pl...
Last Replies :  Beowulf
On : 2018-02-21 18:12:06

Author : Beowulf
Subject :Delicious food worldwide.
Last Replies :  Beowulf
On : 2018-02-21 18:07:01

Author : Chelsea
Subject :WorldWide Street Art v2
Last Replies :  Beowulf
On : 2018-02-21 18:01:35

Author : Chelsea
Subject :Count Down to Zero!
Last Replies :  Rob.Otje
On : 2018-02-21 17:45:17

Author : Deep61
Subject :The Numbers game V3
Last Replies :  Beowulf
On : 2018-02-21 17:35:54



Blog



News


WWT News And Updates Feb 2018
Posted: 02-Dec-17


Site Friends