Torrent Details For "【EX8】[devilman.crybaby][Webdl][S1][1-10End][x264.8bit][GB][720P][MP4]"

Warning! Use a VPN When Downloading Torrents!
Your IP Address is . Location is
Your Internet Provider is tracking your torrent activity! Hide your IP ADDRESS with a VPN!
We strongly recommend using Trust.Zone VPN to anonymize your torrenting. It's FREE!
Get VPN Now for FREE!
【EX8】[devilman.crybaby][Webdl][S1][1-10End][x264.8bit][GB][720P][MP4]



Title: 【EX8】[devilman.crybaby][Webdl][S1][1-10End][x264.8bit][GB][720P][MP4]
Category: Anime > Other Anime
Uploader:

Uploaded by moros*57

Seeders: 122
Leechers: 27
Completed: 13599
Downloaded: 33
Size: 1.23 GB
Language: Japanese Japanese
Ads
Loading...





General
Complete name                  : devilman.crybaby.s01e02.720p.web.x264-EX8.GB.mp4
Format                         : MPEG-4
Format profile                 : Base Media
Codec ID                       : isom (isom)
File size                      : 141 MiB
Duration                       : 25 min 3 s
Overall bit rate mode          : Variable
Overall bit rate               : 787 kb/s
Encoded date                   : UTC 2018-01-05 17:47:26
Tagged date                    : UTC 2018-01-05 17:47:26

Video
ID                             : 1
Format                         : AVC
Format/Info                    : Advanced Video Codec
Format profile                 : [email protected]
Format settings                : CABAC / 4 Ref Frames
Format settings, CABAC         : Yes
Format settings, ReFrames      : 4 frames
Codec ID                       : avc1
Codec ID/Info                  : Advanced Video Coding
Duration                       : 25 min 3 s
Source duration                : 25 min 3 s
Bit rate                       : 656 kb/s
Maximum bit rate               : 11.3 Mb/s
Width                          : 1 280 pixels
Height                         : 720 pixels
Display aspect ratio           : 16:9
Frame rate mode                : Variable
Frame rate                     : 23.976 (24000/1001) FPS
Minimum frame rate             : 23.810 FPS
Maximum frame rate             : 24.390 FPS
Color space                    : YUV
Chroma subsampling             : 4:2:0
Bit depth                      : 8 bits
Scan type                      : Progressive
Bits/(Pixel*Frame)             : 0.030
Stream size                    : 118 MiB (83%)
Source stream size             : 118 MiB (83%)
Writing library                : x264 core 148 r2721+46 0c4b09a xiaowan [[email protected] X86_64]
Encoding settings              : cabac=1 / ref=4 / deblock=1:1:1 / analyse=0x3:0x133 / me=umh / subme=10 / psy=1 / fade_compensate=0.00 / psy_rd=0.30:0.00 / mixed_ref=1 / me_range=24 / chroma_me=1 / trellis=2 / 8x8dct=1 / cqm=0 / deadzone=21,11 / fast_pskip=1 / chroma_qp_offset=-2 / threads=16 / lookahead_threads=1 / sliced_threads=0 / nr=0 / decimate=1 / interlaced=0 / bluray_compat=0 / constrained_intra=0 / fgo=0 / bframes=3 / b_pyramid=2 / b_adapt=2 / b_bias=0 / direct=3 / weightb=1 / open_gop=0 / weightp=2 / keyint=240 / keyint_min=1 / scenecut=60 / intra_refresh=0 / rc_lookahead=60 / rc=crf / mbtree=1 / crf=22.1000 / qcomp=0.50 / qpmin=0:0:0 / qpmax=69:69:69 / qpstep=4 / ip_ratio=1.40 / aq=2:0.80 / aq-sensitivity=10.00 / aq-factor=1.00:1.00:1.00 / aq2=0 / aq3=0
Encoded date                   : UTC 2018-01-05 16:28:08
Tagged date                    : UTC 2018-01-05 17:47:28
Color range                    : Limited
Matrix coefficients            : BT.709

Audio
ID                             : 2
Format                         : AAC
Format/Info                    : Advanced Audio Codec
Format profile                 : LC
Codec ID                       : mp4a-40-2
Duration                       : 25 min 3 s
Bit rate mode                  : Variable
Bit rate                       : 126 kb/s
Maximum bit rate               : 184 kb/s
Channel(s)                     : 2 channels
Channel positions              : Front: L R
Sampling rate                  : 48.0 kHz
Frame rate                     : 46.875 FPS (1024 SPF)
Compression mode               : Lossy
Stream size                    : 22.6 MiB (16%)
Encoded date                   : UTC 2018-01-05 17:46:09
Tagged date                    : UTC 2018-01-05 17:47:28

File Name: Size:
压制 EX8704.00 B
翻译 葛亭筠[官译]?320.00 B
devilman.crybaby.s01e01.720p.web.x264-EX8.GB.mp4140.10 MB
devilman.crybaby.s01e02.720p.web.x264-EX8.GB.mp4141.10 MB
devilman.crybaby.s01e03.720p.web.x264-EX8.GB.mp4103.96 MB
devilman.crybaby.s01e04.720p.web.x264-EX8.GB.mp496.28 MB
devilman.crybaby.s01e05.720p.web.x264-EX8.GB.mp4100.01 MB
devilman.crybaby.s01e06.720p.web.x264-EX8.GB.mp4134.68 MB
devilman.crybaby.s01e07.720p.web.x264-EX8.GB.mp4119.12 MB
devilman.crybaby.s01e08.720p.web.x264-EX8.GB.mp4122.32 MB
devilman.crybaby.s01e09.720p.web.x264-EX8.GB.mp4135.69 MB
devilman.crybaby.s01e10.720p.web.x264-EX8.GB.mp4165.91 MB
TrackersSeedersLeechersCompleted
udp://tracker.coppersurfer.tk:6969/announce1222713,599
Torrent Hash: 13423097EA6F9118729516ABBE936718CBABB54F
Not Yet Rated (Log in to rate it)
No comments still posted

Related Torrents

Torrents NameSizeSLAge
【EX8】[Detective Conan: The Crimson Love Letter][BDRip][GB][1080P]
       0


by moros in Anime > Movie
1.50 GB 0 0 6 wks ago


Embed & Sharing


Login


Email:
Password:
[Signup]
[Recover Account]

Latest Forum


Author : Nemesis43
Subject :Comic Book Request Thread v06
Last Replies :  Webs_1990
On : 2018-02-21 20:59:30

Author : miok
Subject :Google Image Game v2
Last Replies :  miok
On : 2018-02-21 20:37:03

Author : vimzie
Subject :Shoe/Sneaker Thread
Last Replies :  vimzie
On : 2018-02-21 20:35:40

Author : Beowulf
Subject :Watches and Clocks in the Worl...
Last Replies :  vimzie
On : 2018-02-21 19:51:52

Author : vimzie
Subject :WWT Tattoo Thread
Last Replies :  vimzie
On : 2018-02-21 19:49:02

Author : miok
Subject :Dutch/Belgian Community! v.3
Last Replies :  TrueEdterBak
On : 2018-02-21 19:20:42

Author : miok
Subject :How To Become Elite Uploader/A...
Last Replies :  zeke23
On : 2018-02-21 18:56:44

Author : Beowulf
Subject :Random natural pics on this Pl...
Last Replies :  Beowulf
On : 2018-02-21 18:12:06

Author : Beowulf
Subject :Delicious food worldwide.
Last Replies :  Beowulf
On : 2018-02-21 18:07:01

Author : Chelsea
Subject :WorldWide Street Art v2
Last Replies :  Beowulf
On : 2018-02-21 18:01:35

Author : Chelsea
Subject :Count Down to Zero!
Last Replies :  Rob.Otje
On : 2018-02-21 17:45:17

Author : Deep61
Subject :The Numbers game V3
Last Replies :  Beowulf
On : 2018-02-21 17:35:54



Blog



News


WWT News And Updates Feb 2018
Posted: 02-Dec-17


Site Friends